+ irs-refund.info »  :::: Bollywood Zone » Bollywood Movies (Original Rips) » Bollywood Movies (1945-2000)
|- Mela [2000] Hindi DVDRip 720p X264 AC3 [5.1]...[[email protected]]


100% Bill Offer

Mela [2000] Hindi DVDRip 720p X264 AC3 [5.1]...[[email protected]]

0 Members and 1 Guest are viewing this topic.

June 05, 2014, 11:10:57 AM
  • Admin
  • Legend Member
  • ****
  • Topic Author
  • Thank You: 1095
  • Reputation: 1226
  • Activity:
    0.2%
  • Country: pk
  • Posts: 2943
  • Topics: 1324
  • Join Date: Jul 2013
  • Khuwaja Market Tando Allahyar

Mela [2000] Hindi DVDRip 720p X264 AC3 [5.1]...[[email protected]]





Format : Matroska
Format version : Version 4 / Version 2
File size : 1.89 GiB
Duration : 2h 43mn
Overall bit rate : 1 653 Kbps
Movie name : Mela {2000] Hindi DVDRip 720p X264 AC3 [5.1]...[[email protected]]
Encoded date : UTC 2014-06-04 02:51:48
Writing application : mkvmerge v6.9.1 ('Blue Panther') 32bit built on Apr 18 2014 18:15:44
Writing library : libebml v1.3.0 + libmatroska v1.4.1

Video
ID : 1
Format : AVC
Format/Info : Advanced Video Codec
Format profile : [email protected]
Format settings, CABAC : Yes
Format settings, ReFrames : 8 frames
Codec ID : V_MPEG4/ISO/AVC
Duration : 2h 43mn
Bit rate : 1 200 Kbps
Width : 1 280 pixels
Height : 544 pixels
Display aspect ratio : 2.35:1
Frame rate mode : Constant
Frame rate : 24.000 fps
Color space : YUV
Chroma subsampling : 4:2:0
Bit depth : 8 bits
Scan type : Progressive
Bits/(Pixel*Frame) : 0.072
Stream size : 1.34 GiB (71%)
Title : [[email protected]]
Writing library : x264 core

Default : Yes
Forced : No
Color primaries : BT.709
Transfer characteristics : BT.709
Matrix coefficients : BT.709

Audio
ID : 2
Format : AC-3
Format/Info : Audio Coding 3
Mode extension : CM (complete main)
Format settings, Endianness : Big
Codec ID : A_AC3
Duration : 2h 43mn
Bit rate mode : Constant
Bit rate : 448 Kbps
Channel(s) : 6 channels
Channel positions : Front: L C R, Side: L R, LFE
Sampling rate : 48.0 KHz
Bit depth : 16 bits
Compression mode : Lossy
Stream size : 524 MiB (27%)
Title : [[email protected]]
Language : Hindi
Default : Yes
Forced : No














 :download:






Share this topic on FacebookShare this topic on GoogleShare this topic on MySpaceShare this topic on TwitterShare this topic on Yahoo




October 15, 2014, 04:04:17 PM
Reply #1
  • Semi Newbie
  • **
  • Thank You: 0
  • Reputation: -1
  • Activity:
    0%
  • Country: ir
  • Posts: 45
  • Topics: 0
  • Join Date: Feb 2014
  • ShareSpark Member

Tags:
 

Related Topics

  Subject / Started by Replies Last post
2 Replies
1797 Views
Last post April 26, 2013, 07:39:52 AM
by badluck
1 Replies
934 Views
Last post May 20, 2014, 10:07:59 AM
by [email protected]
1 Replies
1235 Views
Last post June 15, 2017, 04:25:23 PM
by ~DoSANJiT
0 Replies
599 Views
Last post April 13, 2018, 06:39:21 PM
by Special26
0 Replies
947 Views
Last post June 10, 2018, 07:49:25 AM
by Special26




Back to top
Sitemap