+ irs-refund.info »  :::: Bollywood Zone » Bollywood Movies (Original Rips) » Bollywood Movies (1945-2000)
|- Pukar (2000) 720p Untouched Web-HD AVC AAC - Hon3y

Weekend Pay And Play 50% Off

Pukar (2000) 720p Untouched Web-HD AVC AAC - Hon3y

0 Members and 1 Guest are viewing this topic.

April 20, 2018, 07:40:49 PM
  • Team SSX
  • Elite Forces
  • ***
  • Topic Author
  • Thank You: 1381
  • Reputation: 489
  • Activity:
    67%
  • Country: np
  • Posts: 1399
  • Topics: 774
  • Join Date: Jul 2016
  • Love Forever !!
Pukar (2000) 720p Untouched Web-HD AVC AAC - Hon3y



 :info:
Format : Matroska
File size : 2.37 GiB
Duration : 2 h 41 min
Overall bit rate : 2 107 kb/s

Video
ID : 1
Format : AVC
Format/Info : Advanced Video Codec
Format profile : [email protected]
Format settings, CABAC : Yes
Format settings, ReFrames : 4 frames
Codec ID : V_MPEG4/ISO/AVC
Duration : 2 h 41 min
Bit rate : 1 973 kb/s
Nominal bit rate : 2 500 kb/s
Width : 1 280 pixels
Height : 720 pixels
Display aspect ratio : 16:9
Frame rate mode : Constant
Frame rate : 25.000 FPS
Stream size : 2.22 GiB (94%)

Audio
ID : 2
Format : AAC
Format/Info : Advanced Audio Codec
Format profile : LC
Codec ID : A_AAC
Duration : 2 h 41 min
Bit rate : 132 kb/s
Channel(s) : 2 channels
Channel positions : Front: L R
Sampling rate : 44.1 kHz
Frame rate : 43.066 FPS (1024 spf)
Stream size : 152 MiB (6%)


 :ss:




 :download:






Share this topic on FacebookShare this topic on GoogleShare this topic on MySpaceShare this topic on TwitterShare this topic on Yahoo

« Last Edit: April 20, 2018, 07:44:46 PM by special26 »



Tags:
 

Related Topics

  Subject / Started by Replies Last post
1 Replies
1065 Views
Last post May 29, 2013, 11:46:02 PM
by Ali87
0 Replies
649 Views
Last post July 18, 2014, 01:19:12 AM
by donking
24 Replies
2427 Views
Last post September 02, 2018, 12:01:23 AM
by Rakesh005
3 Replies
904 Views
Last post June 15, 2017, 11:10:39 PM
by Vagabond
2 Replies
949 Views
Last post April 09, 2018, 09:58:16 AM
by stark2006



Back to top