+ irs-refund.info »  :::: Bollywood Zone » Bollywood Movies (Original Rips) » Bollywood Movies (1945-2000)
|- PARINDA (1989) 1080P WEBHD AVC AAC ESUB-DTONE

Add 1000 Get 100 Back

PARINDA (1989) 1080P WEBHD AVC AAC ESUB-DTONE

0 Members and 1 Guest are viewing this topic.

April 14, 2018, 12:37:58 PM
  • Global Moderator
  • Legend Member
  • *****
  • Topic Author
  • Thank You: 7648
  • Reputation: 1691
  • Activity:
    100%
  • Country: in
  • Posts: 4519
  • Topics: 3766
  • Join Date: Jan 2014
  • ıllıllı ѕмoĸιng ιѕ good ғor нealтн ıllıllı :)
PARINDA (1989) 1080P WEBHD AVC AAC ESUB-DTONE





Quote
General
Unique ID                  : 243610155306096345785042796610012402413 (0xB7459BFA2C3AFAFB9688909A00A552ED)
Complete name              : Parinda (1989) 1080p WebHD AVC AAC ESub-DTOne\Parinda (1989) 1080p WebHD AVC AAC ESub-DTOne.mkv
Format                      : Matroska
Format version              : Version 4 / Version 2
File size                  : 6.30 GiB
Duration                    : 2 h 28 min
Overall bit rate            : 6 062 kb/s
Encoded date                : UTC 2016-08-06 09:18:53
Writing application        : mkvmerge v9.3.1 ('Mask Machine') 32bit
Writing library            : libebml v1.3.4 + libmatroska v1.4.5

Video
ID                          : 1
Format                      : AVC
Format/Info                : Advanced Video Codec
Format profile              : [email protected]
Format settings            : CABAC / 4 Ref Frames
Format settings, CABAC      : Yes
Format settings, ReFrames  : 4 frames
Codec ID                    : V_MPEG4/ISO/AVC
Duration                    : 2 h 28 min
Bit rate                    : 5 873 kb/s
Width                      : 1 920 pixels
Height                      : 1 080 pixels
Display aspect ratio        : 16:9
Frame rate mode            : Constant
Frame rate                  : 25.000 FPS
Color space                : YUV
Chroma subsampling          : 4:2:0
Bit depth                  : 8 bits
Scan type                  : Progressive
Bits/(Pixel*Frame)          : 0.113
Stream size                : 6.10 GiB (97%)
Default                    : Yes
Forced                      : No

Audio
ID                          : 2
Format                      : AAC
Format/Info                : Advanced Audio Codec
Format profile              : LC
Codec ID                    : A_AAC-2
Duration                    : 2 h 28 min
Bit rate                    : 192 kb/s
Channel(s)                  : 2 channels
Channel positions          : Front: L R
Sampling rate              : 48.0 kHz
Frame rate                  : 46.875 FPS (1024 SPF)
Compression mode            : Lossy
Delay relative to video    : -43 ms
Stream size                : 207 MiB (3%)
Default                    : Yes
Forced                      : No

Subtitle     : English

:ss:






:download:

Quote





File Leeched & Uploaded From




Don't walk as you are king, walk as you don't care who the king is....!!
Never argue with an idiot. They drag you down to their level and then beat you with experience?

Share this topic on FacebookShare this topic on GoogleShare this topic on MySpaceShare this topic on TwitterShare this topic on Yahoo




Don't walk as you are king, walk as you don't care who the king is....!!

Thanks given by:


Tags:
 

Related Topics

  Subject / Started by Replies Last post
0 Replies
614 Views
Last post April 22, 2016, 10:20:41 PM
by s¡lєит_αssαss¡и
2 Replies
799 Views
Last post December 04, 2017, 02:56:34 PM
by Tauras
0 Replies
436 Views
Last post February 22, 2018, 05:33:32 PM
by elephant.share
4 Replies
1290 Views
Last post March 09, 2018, 03:24:54 AM
by jaydeep123
3 Replies
768 Views
Last post March 11, 2018, 08:33:55 AM
by esper



Back to top