+ irs-refund.info »  :::: Bollywood Zone » Bollywood Movies (Original Rips) » Bollywood Movies (1945-2000)
|- Hum Dil De Chuke Sanam (1999) REMASTERED 1080p WEB-DL x264 AAC Esub - Hon3y [With Google Drive]

Add 1000 Get 100 Back

Hum Dil De Chuke Sanam (1999) REMASTERED 1080p WEB-DL x264 AAC Esub - Hon3y [With Google Drive]

0 Members and 1 Guest are viewing this topic.

April 06, 2018, 09:55:04 AM
  • Team SSX
  • Elite Forces
  • ***
  • Topic Author
  • Thank You: 1381
  • Reputation: 489
  • Activity:
    67%
  • Country: np
  • Posts: 1399
  • Topics: 774
  • Join Date: Jul 2016
  • Love Forever !!
Hum Dil De Chuke Sanam (1999) REMASTERED 1080p WEB-DL x264 AAC Esub - Hon3y



 :info:
Format : Matroska
Format version : Version 4 / Version 2
File size : 7.95 GiB
Duration : 3 h 8 min
Overall bit rate : 6 043 kb/s

Video
ID : 1
Format : AVC
Format/Info : Advanced Video Codec
Format profile : [email protected]
Format settings, CABAC : Yes
Format settings, ReFrames : 4 frames
Codec ID : V_MPEG4/ISO/AVC
Duration : 3 h 8 min
Bit rate : 5 873 kb/s
Width : 1 920 pixels
Height : 1 080 pixels
Display aspect ratio : 16:9
Frame rate mode : Constant
Frame rate : 24.000 FPS

Audio
ID : 2
Format : AAC
Format/Info : Advanced Audio Codec
Format profile : LC
Codec ID : A_AAC
Duration : 3 h 8 min
Bit rate : 192 kb/s
Channel(s) : 2 channels
Channel positions : Front: L R
Sampling rate : 48.0 kHz
Frame rate : 46.875 FPS (1024 spf)
Compression mode : Lossy
Delay relative to video : -43 ms
Stream size : 261 MiB (3%)
Language : Hindi
Default : Yes
Forced : No

Text
ID : 3
Format : UTF-8
Codec ID : S_TEXT/UTF8
Codec ID/Info : UTF-8 Plain Text
Duration : 3 h 4 min
Bit rate : 47 b/s
Count of elements : 1871
Stream size : 64.7 KiB (0%)
Language : English
Default : Yes
Forced : No


 :ss:







 :download:






Share this topic on FacebookShare this topic on GoogleShare this topic on MySpaceShare this topic on TwitterShare this topic on Yahoo

« Last Edit: April 26, 2018, 09:18:59 AM by special26 »


Thanks given by:


April 06, 2018, 10:01:45 AM
Reply #1
  • Addic7ed
  • Royal Member
  • ****
  • Thank You: 505
  • Reputation: 185
  • Activity:
    12.2%
  • Country: np
  • Posts: 1077
  • Topics: 702
  • Join Date: May 2017
  • #Me

April 06, 2018, 10:02:36 AM
Reply #2
  • Elite Member
  • ***
  • Thank You: 0
  • Reputation: 0
  • Activity:
    2%
  • Posts: 453
  • Topics: 0
  • Join Date: Jul 2012
  • ShareSpark Member
please 720p upload kar do ishka......
Aur black baar bhi hata dena

April 06, 2018, 12:15:26 PM
Reply #3
  • Semi Newbie
  • **
  • Thank You: 0
  • Reputation: 0
  • Activity:
    5.8%
  • Country: my
  • Posts: 39
  • Topics: 0
  • Join Date: Mar 2018
  • ShareSpark Member

April 06, 2018, 12:26:23 PM
Reply #4
  • Newbie
  • **
  • Thank You: 0
  • Reputation: 0
  • Activity:
    0%
  • Country: in
  • Posts: 4
  • Topics: 0
  • Join Date: Nov 2016
  • ShareSpark Member

April 07, 2018, 04:57:49 AM
Reply #5
  • Semi Newbie
  • **
  • Thank You: 0
  • Reputation: 0
  • Activity:
    2.6%
  • Country: us
  • Posts: 43
  • Topics: 0
  • Join Date: Sep 2017
  • ShareSpark Member

April 26, 2018, 06:28:28 AM
Reply #6
  • Devoted Member
  • **
  • Thank You: 0
  • Reputation: 0
  • Activity:
    0%
  • Posts: 121
  • Topics: 0
  • Join Date: Feb 2012
  • ShareSpark Member

Tags:
 

Related Topics




Back to top