+ irs-refund.info
|- Recent Posts


100% Bill Offer

Recent Posts

Pages: 1 2 3 4 ... 10
1
      Soorma (2018) Hindi Movie - HDRip
[Mp4 - AAC3(5.1Ch)] - 849 MB   
 





Code: [Select]
General
Format                                   : Matroska
Format version                           : Version 4
File size                                : 849 MiB
Duration                                 : 2 h 32 min

Video
ID                                       : 1
Format                                   : AVC
Format/Info                              : Advanced Video Codec
Format profile                           : [email protected]
Format settings                          : CABAC / 4 Ref Frames
Format settings, CABAC                   : Yes
Format settings, RefFrames               : 4 frames
Codec ID                                 : V_MPEG4/ISO/AVC
Duration                                 : 2 h 32 min
Bit rate                                 : 650 kb/s
Width                                    : 640 pixels
Height                                   : 272 pixels
Display aspect ratio                     : 2.35:1
Frame rate mode                          : Constant
Frame rate                               : 25.000 FPS
Color space                              : YUV
Chroma subsampling                       : 4:2:0
Bit depth                                : 8 bits
Scan type                                : Progressive
Bits/(Pixel*Frame)                       : 0.149
Stream size                              : 708 MiB (83%)

Audio
ID                                       : 2
Format                                   : AAC LC SBR
Commercial name                          : HE-AAC
Format settings                          : Explicit
Codec ID                                 : A_AAC-2
Duration                                 : 2 h 32 min
Bit rate                                 : 128 kb/s
Channel(s)                               : 6 channels
Channel layout                           : C L R Ls Rs LFE
Sampling rate                            : 48.0 kHz
Stream size                              : 139 MiB (16%)



  Thumbnail   





OR

OR

2

Yoku's Island Express [v 1.2] (2018) PC | CODEX |Size: 1.30  GB
Year of release : 2018
Genre : Adventure games, Platformer.
Developer : Villa Gorilla
Publisher : Team17 Digital Ltd
Platform : PC
Publication Type : License
Version : 1.2
Interface Language : Russian, English, French, German, Italian, Spanish, Japanese, Korean, Chinese (simpl.)
Language : absent
Tabletka : Present (CODEX)

Description:
Yoku arrived on the island of Mokumana in search of an easy life: he is going to bask in the sun and deliver parcels to a tropical paradise!
However, the ancient deity of the island is forcibly immersed in a painful dream, so it is Yoku who will have to travel around the island to help all who are in trouble! In this amazing adventure, you will find a unique combination of pinball mechanics, platformer and the opportunity to explore an open world.
The miniature hero will skip around the beautiful island, drawn by hand, to rebuild the mail and awaken the ancient deity from sleep.

Game features:

An open-world pinball-style adventure: The storyline on Yoku's Island Express is non-linear, so you can complete game tasks with a unique style that combines the features of pinball and platformer in any order.
You can easily explore many different areas of the island: tropical beaches, gorgeous jungles, snow-capped mountains, mysterious caves and hot springs!
Help the locals and earn a lot of wonderful boosts!
Suck up the exploding mollusks in a vacuum cleaner and awaken the sleepy villagers of the village by a noise!
Discover the most intimate secrets of the island, meeting on the way unforgettable characters during the development of different storylines. And maybe you can restore the mail!
Get ready to fight the giant bosses, using the right ball Yoku to deliver the final blow.
You will love the style of the game, created by the most experienced artists from the gaming industry.

Installation Procedure:

Mount image (UltraIso, Daemon tools, etc.)
Run setup.exe.
Click Install. Wait for the installation to complete.
Install updates (Update.v20180618-CODEX 1 / Update.v20180725-CODEX 2)
Copy the crack to the game directory.

System Requirements:
System requirements :
OS : Windows 7 and higher (64-bit)
Processor : Intel i3-2100 @ 3GHz / AMD A8-5500 @ 3.2GHz
RAM : 4 GB RAM
Video card : Nvidia GeForce GT 630 1GB / AMD Radeon 7770 1GB / Intel HD 530
DirectX : Version 10
Disk space : 3 GB

ScreenShots






Code: [Select]
http://rapidgator.net/file/44e335497d5b2e8b7b84077aaf48de5f/Yokus.Island.Express-CODEX.part1.rar.html
http://rapidgator.net/file/2754d903961adf01f28bbc25ace0e2be/Yokus.Island.Express-CODEX.part2.rar.html
Code: [Select]
http://uptobox.com/gakk826tlho2
http://uptobox.com/qo5cw5so3kwe
3

Gothic 3 - Advanced Edition / Gothic 3 - Enhanced Edition (2006) PC | Qoob repack |Size: 3.53  GB
Year of Manufacture: 2006
Genre: RPG,3rd-Person
Developer: Piranha Bytes
Publisher: Nordic Games
Publication Type: RePack
Platform: PC
Interface Language: Russian, English
Voice Language: Russian, English
Drug: Not required (GOG | DRM-FREE)

Description:
Orcs have enslaved people. You are one of the lucky few still walking around Myrtana. It is up to you what to do next: to remain loyal to the deposed ruler of the people, to enter the service of the orcish invaders, or to lead your own, unprecedented way. Your every decision has an impact on the balance of power and the fate of humanity. What will happen to those living under the orc oppression depends on you. Gothic 3 ("Gothic 3") is as non-linear as possible in a role-playing game without loss of meaning. The huge original world is full of treasures, picturesque corners and terrible secrets. This is a huge playground where you can do whatever you want. "Gothic 3" shook at the start due to some errors; in the version offered here, they were fixed, the gameplay became smooth,

Features Repack
▪ Based on DRM Free version from gog.com (21829)
▪ It is possible to skip downloading unnecessary localization
▪ Trust the game - 1.75.14L
▪ Set ~ 2 min
▪ RePack from qoob

System Requirements:

ScreenShots





Code: [Select]
http://rapidgator.net/file/6b66d625b21df002f938a429968e8d62/Gothic3qoobRePack.part1.rar.html
http://rapidgator.net/file/acf0a094c773e3c9e3dd54b8e476a795/Gothic3qoobRePack.part2.rar.html
http://rapidgator.net/file/c26e0380a45574a4ba31bba9173ed8fb/Gothic3qoobRePack.part3.rar.html
http://rapidgator.net/file/5600aa26c87e8e7d932e7298ed9fb4b3/Gothic3qoobRePack.part4.rar.html
Code: [Select]
http://uptobox.com/43mn6nuccxzu
http://uptobox.com/2teuigu41l05
http://uptobox.com/be5cynhmtw7r
http://uptobox.com/ocdlft59hpp1

4

The Unlikely Legend of Rusty Pup (2018) HOODLUM  |Size: 2.01 GB
Title: The Unlikely Legend of Rusty Pup-HOODLUM
Genre: Strategy
Developer: Gory Detail Limited
Publisher: Gory Detail Limited
Release Date: 19 Oct, 2018

Description:
'Our story begins, down a drain we are flushed. Did we slip ? Did we fall? Or was it a push?' From the original creators of Conker's Bad Fur Day, comes a delicately told tale of a dog which thinks it's a toy, or is it a toy that thinks it's a dog? Lost and alone in a richly detailed 2D world, you must help lead our sad pooch back home again! Just in time for tea.
Don't just sit there and skulk, or curl up for a sulk. Lift that tail I implore, for it's time we explore. Not for the faint-hearted, explore this dark and dingy labyrinth. Avoid its pitfalls, exploit its treasure, relish its marvels and so save those souls from a fate worse than death.

System Requirements:
Minimum:
• OS: Windows 7
• Processor: Intel i5-3330 3GHz
• Memory: 8 GB RAM
• Graphics: NVIDIA GTX 650 / AMD Radeon HD 7770 1GB
• Storage: 3 GB available space
• Sound Card: Any OpenAL supported
Additional Notes: Will run on lower spec GFX cards if you enable lo-res textures in the config.txt file
Recommended:
• OS: Windows 10
• Processor: Intel i7-2600 3.4GHz
• Memory: 8 GB RAM
• Graphics: NVIDIA GTX 780 / AMD Radeon R9 290X 1GB
• Storage: 3 GB available space
• Sound Card: Any OpenAL supported

ScreenShots







Code: [Select]
http://rapidgator.net/file/39b92dbdfce2c4ded229846d66649d1f/The_Unlikely_Legend_of_Rusty_Pup-HOODLUM.part1.rar.html
http://rapidgator.net/file/ff19a6ad6407f9dd0ad18a0ef6f878d2/The_Unlikely_Legend_of_Rusty_Pup-HOODLUM.part2.rar.html
http://rapidgator.net/file/99c05bd29f4e4a05964e694dbbb69c42/The_Unlikely_Legend_of_Rusty_Pup-HOODLUM.part3.rar.html
Code: [Select]
http://uptobox.com/bujvra07dl51
http://uptobox.com/ob7nvbkvy337
http://uptobox.com/pfusx4rlf0so
5

Battlestar Galactica Deadlock [v 1.1.51 + 3 DLC] (2017) PC | CODEX |Size: 5.98  GB
Year of release: 2017
Genre: Strategy (TBS), Simulator , Space , 3D
Developer: Black Lab Games
Publisher: Slitherine Ltd.
Game Version: 1.1.51 Publication
Type: License
Interface Language:  Russian / English
Language:  English
Tablet: Present (CODEX)

Description:
The game Battlestar Galactica Deadlock sends you into the heart of the First Cylon War - to experience tactical skills in 3D grand battles. You will take control of the Colonial Fleet, the flying ship Daedalus and get a chance to save the Twelve colonies from the Sylonsky threat. Create fleets, defend the Quorum alliance and get ready to plunge into the intricacies of the conflict in which the fate of humanity will be decided. Four years of war and many human lives were not enough to bring humanity out of the deadly impasse. The colonies still managed to repel the attacks of the Cylon, but they could not achieve final victory. The situation changed dramatically after the sudden attack of the Cylon and the brutal destruction of the High Command of the Colonial Fleet on Picone. The fate of mankind was in the hands of Rear Admiral Lucinda Cain.

Game features:
Command of the Colonial Fleet
Design and build warships with powerful weapons. Hire officers to protect the Twelve Colonies. At your disposal a variety of combat units: from light "Manticore" to the huge star cruisers of the class "Jupiter".
Legendary Names
Continue the story of the Battlestar Galactica ™ universe during the First Cylon War, in which both new characters and familiar heroes will appear. Launch the squadron "Vipers" and reconnaissance "Raptor", make superluminal jumps on the "Galaxy" and subdue the battlefield. The unique Battlestar Galactica ™ universe is waiting for you.
Tactical battle WEGO 3D
Tense tactical battles in space - in full 3D. Let's command the fleet of warships and in real time (with the possibility of a pause) watch how the battle unfolds - against the backdrop of magnificent views of outer space.
Political decisions
You will command the entire Colonial fleet from your command post at the Daedalus shipyard. Form a fleet and jump in the four-sun system Cyrannus. Defend the Colonies and do not let the enmity flare up in the Quorum of twelve, otherwise the alliance will disintegrate and the Cylons will gain the upper hand for a long time.
Cylon threat
Get ready to meet face to face with a merciless opponent. Defend yourself from squadron of Cylon raiders and let deadly rocket volleys from star cruisers. Your firewalls will restrain the hacker attacks of electronic warfare fighters - "Vardrayver", - and the landing will fight back to the boarding crews of cylinders. Open drawings of new ships, ammunition and squadrons that will help in the fight against the inexorable enemy.
Combined forces
Multiplayer battles of star cruisers, which you have not yet seen! Try to beat your opponents in fierce naval battles 1 on 1.

DLC:
Battlestar Galactica Deadlock: Reinforcement Pack
Battlestar Galactica Deadlock: The Broken Alliance
Battlestar Galactica Deadlock: Anabasis

Installation:
1. Mount image and install the game.
2. Copy the contents of the CODEX folder to the folder with the game installed.
3. Play.

Change the language to Russian as usual, in the file steam_emu.ini where the Language parameter for the place of english is changed to russian and saved.

System Requirements:
√ Operating system: Windows
7/8/10 √ Processor: Intel Dual Core 2.0 GHz, AMD Athlon X2 4000+
√ RAM: 4 GB
√ Video card: GeForce GTX 460 / Radeon HD 5770
√ Sound Card: Compatible with DirectX 9.0c
√ Free hard disk space: 9 GB

ScreenShots






Code: [Select]
http://rapidgator.net/file/abdaa7b005631fa0d0820a91d4f17363/Battlestar.Galactica.Deadlock.Anabasis.CODEX.part1.rar.html
http://rapidgator.net/file/7deacea162b22fc230656540536465fa/Battlestar.Galactica.Deadlock.Anabasis.CODEX.part2.rar.html
http://rapidgator.net/file/9a3926bb5a957c8aaa38863c6aa88553/Battlestar.Galactica.Deadlock.Anabasis.CODEX.part3.rar.html
http://rapidgator.net/file/4b6a95727f7ba517fea6f8ab82cfc24c/Battlestar.Galactica.Deadlock.Anabasis.CODEX.part4.rar.html
http://rapidgator.net/file/a4271fe299f469a55843e1b8f78b49d0/Battlestar.Galactica.Deadlock.Anabasis.CODEX.part5.rar.html
http://rapidgator.net/file/11b805564718b28d3d38b66ad5d6dbbd/Battlestar.Galactica.Deadlock.Anabasis.CODEX.part6.rar.html
http://rapidgator.net/file/ba9434d1c8fbf4bfff73dc63f5ce35a9/Battlestar.Galactica.Deadlock.Anabasis.CODEX.part7.rar.html
Code: [Select]
http://uptobox.com/m96vtxm3wxhk
http://uptobox.com/i28xax59mfpl
http://uptobox.com/k1c53ssenls0
http://uptobox.com/bvttl943b2yw
http://uptobox.com/mpad70uo9gb1
http://uptobox.com/z2j7pzeo9no4
http://uptobox.com/jke6c6700y1s

6

Omensight Definitive Edition (2018) PC |  FitGirl repack| Size:3.32   GB
Release Date:  15 May, 2018
 Genre: Action, Adventure, Indie
 Developer / Publisher: Spearhead Games
 Language:  Multi
 Publication Type: repack
 Tablet: Enclosure (CODEX)
 

Description :
Omensight is an action packed puzzle game. You are a harbinger, a powerful mystic warrior. You witnessed the destruction of the world. To prevent destruction, you are destined to repeat this fateful day and uncover the murder of the godless-priestess.

Repack Features

Repack is based on the ISO-image Omensight.Definitive.Edition-CODEX: codex-omensight.definitive.edition.iso (5,485,461,504 bytes)
100% Lossless and MD5 Perfect: all files after installation are identical to the original release with bit accuracy
NOTHING NOTHING, NOTHING RECOMMENDED.
Significantly improved compression (from 5.1 to 3.3 GB)
Installation takes 2-3 minutes
After installation, the game takes 6 GB
After installation, the option to check the checksums of all files is available to make sure that the repack is installed normally.
To change the language, use the "Language Selector.exe" in the "Engine / Binaries / ThirdParty / Steamworks / Steamv132 / Win64" folder of the game
To install the repack requires a minimum of 2 GB of free RAM (including virtual)
The repack uses the XTool library from Razor12911

[Repack] by FitGirl

System requirements :
✔ Operating system : the Windows 7/8/10
✔ processor: Intel Core 2 Duo / AMD Athlon X2 64 | 2 GHz
✔ RAM : 3 GB
✔ Video card : compatible with DirectX 9.0c, with 256 MB of video memory
✔ Sound card : Sound device compatible with DirectX ® 9.0
✔ Free space on hard disk : 7.4 GB



ScreenShots





Code: [Select]
http://rapidgator.net/file/ed5c38f2f21a67413c1457d4e87a4125/OmensightFitGirl.part1.rar.html
http://rapidgator.net/file/3619f7b3f0aa34b38bc45cbf70b1be86/OmensightFitGirl.part2.rar.html
http://rapidgator.net/file/e6d7d36a87bb6f8d5760b72d0c7dfea5/OmensightFitGirl.part3.rar.html
http://rapidgator.net/file/af609f9776842f407463f6b059a452ec/OmensightFitGirl.part4.rar.html
Code: [Select]
http://uptobox.com/s2jvzw3a2mba
http://uptobox.com/z1carc1c6qfx
http://uptobox.com/myfzx6hlb8wg
http://uptobox.com/lwhrztc1q69h

7
      Soorma (2018) Hindi Movie - 2CD -
HDRip[x264 - AC3(5.1Ch)]   
 





Code: [Select]
General
Format                                   : Matroska
Format version                           : Version 4
File size                                : 1.40 GiB
Duration                                 : 2 h 32 min

Video
ID                                       : 1
Format                                   : AVC
Format/Info                              : Advanced Video Codec
Format profile                           : [email protected]
Format settings                          : CABAC / 4 Ref Frames
Format settings, CABAC                   : Yes
Format settings, RefFrames               : 4 frames
Codec ID                                 : V_MPEG4/ISO/AVC
Duration                                 : 2 h 32 min
Bit rate                                 : 1 125 kb/s
Width                                    : 720 pixels
Height                                   : 304 pixels
Display aspect ratio                     : 2.35:1
Frame rate mode                          : Constant
Frame rate                               : 25.000 FPS
Color space                              : YUV
Chroma subsampling                       : 4:2:0
Bit depth                                : 8 bits
Scan type                                : Progressive
Bits/(Pixel*Frame)                       : 0.206
Stream size                              : 1.20 GiB (85%)

Audio
ID                                       : 2
Format                                   : AC-3
Format/Info                              : Audio Coding 3
Commercial name                          : Dolby Digital
Codec ID                                 : A_AC3
Duration                                 : 2 h 32 min
Bit rate mode                            : Constant
Bit rate                                 : 192 kb/s
Channel(s)                               : 6 channels
Channel layout                           : L R C LFE Ls Rs
Sampling rate                            : 48.0 kHz
Stream size                              : 209 MiB (15%)



  Thumbnail   







OR

OR

8
Bigg.Boss.Season.12.(Day.30).720p.WEB-DL.x264.AAC.-.Hon3yHD





Bigg Boss S12
Episode 22 | 16 Oct 18 | 43m
Share
Favourite
Sree's ploy: The Dipika disclosure
Day 30: Sree Santh's revenge plan against his new enemy Dipika Kakar Ibrahim includes total exposure of her backstabbing ways. But, with no aggression or raised voices this time! He plans to get closer to her just so he can use their former rapport against her. Witness his plan in action, only on Voot.





 :ss:







 :download:


























9
      Guru (2018 - South Hindi Dubbed) -
HDTVRip[Mp4 - AAC3(5.1Ch)] - 450 MB   
 






Code: [Select]
General
Format                                   : MPEG-4
Format profile                           : Base Media
Codec ID                                 : isom (isom)
File size                                : 451 MiB
Duration                                 : 1 h 48 min

Video
ID                                       : 1
Format                                   : AVC
Format/Info                              : Advanced Video Codec
Format profile                           : [email protected]
Format settings                          : CABAC / 4 Ref Frames
Format settings, CABAC                   : Yes
Format settings, RefFrames               : 4 frames
Codec ID                                 : avc1
Codec ID/Info                            : Advanced Video Coding
Duration                                 : 1 h 48 min
Bit rate                                 : 496 kb/s
Maximum bit rate                         : 2 035 kb/s
Width                                    : 640 pixels
Height                                   : 272 pixels
Display aspect ratio                     : 2.35:1
Frame rate mode                          : Constant
Frame rate                               : 25.000 FPS
Color space                              : YUV
Chroma subsampling                       : 4:2:0
Bit depth                                : 8 bits
Scan type                                : Progressive
Bits/(Pixel*Frame)                       : 0.114
Stream size                              : 386 MiB (86%)

Audio
ID                                       : 2
Format                                   : AAC LC SBR
Commercial name                          : HE-AAC
Format settings                          : Explicit
Codec ID                                 : mp4a-40-2
Duration                                 : 1 h 48 min
Bit rate mode                            : Variable
Bit rate                                 : 79.8 kb/s
Maximum bit rate                         : 87.2 kb/s
Channel(s)                               : 6 channels
Channel layout                           : C L R Ls Rs LFE
Sampling rate                            : 48.0 kHz
Stream size                              : 62.1 MiB (14%)


  Thumbnail   





OR

OR


10
      Guru (2018 - South Hindi Dubbed) - 1CD -
 HDTVRip[Mp4 - AAC3(5.1Ch)]   
 






Code: [Select]
General
Format                                   : MPEG-4
Format profile                           : Base Media
Codec ID                                 : isom (isom)
File size                                : 702 MiB
Duration                                 : 1 h 48 min

Video
ID                                       : 1
Format                                   : AVC
Format/Info                              : Advanced Video Codec
Format profile                           : [email protected]
Format settings                          : CABAC / 4 Ref Frames
Format settings, CABAC                   : Yes
Format settings, RefFrames               : 4 frames
Codec ID                                 : avc1
Codec ID/Info                            : Advanced Video Coding
Duration                                 : 1 h 48 min
Bit rate                                 : 771 kb/s
Maximum bit rate                         : 2 825 kb/s
Width                                    : 720 pixels
Height                                   : 312 pixels
Display aspect ratio                     : 2.35:1
Frame rate mode                          : Constant
Frame rate                               : 25.000 FPS
Color space                              : YUV
Chroma subsampling                       : 4:2:0
Bit depth                                : 8 bits
Scan type                                : Progressive
Bits/(Pixel*Frame)                       : 0.137
Stream size                              : 600 MiB (85%)

Audio
ID                                       : 2
Format                                   : AAC LC SBR
Commercial name                          : HE-AAC
Format settings                          : Explicit
Codec ID                                 : mp4a-40-2
Duration                                 : 1 h 48 min
Bit rate mode                            : Variable
Bit rate                                 : 128 kb/s
Maximum bit rate                         : 137 kb/s
Channel(s)                               : 6 channels
Channel layout                           : C L R Ls Rs LFE
Stream size                              : 99.4 MiB (14%)


  Thumbnail   






OR

OR

Pages: 1 2 3 4 ... 10



Back to top
Sitemap